#TITLE:Silence;
#SUBTITLE:;
#ARTIST:FFMusicDJ;
#TITLETRANSLIT:;
#SUBTITLETRANSLIT:;
#ARTISTTRANSLIT:;
#CREDIT:;
#BANNER:Silence-bn.png;
#BACKGROUND:Silence-bg.png;
#LYRICSPATH:;
#CDTITLE:DJS CD.png;
#MUSIC:silence.mp3;
#OFFSET:-2.640;
#SAMPLESTART:99.980;
#SAMPLELENGTH:12.000;
#SELECTABLE:YES;
#BPMS:0.000=140.000,66.000=280.000,70.000=140.000,70.500=120.000,71.000=90.000,71.500=40.000,72.000=140.000,356.000=70.000,357.000=155.000,358.000=220.000,359.000=280.000;
#STOPS:66.000=1.000
;
#BGCHANGES:;
// cache tags:
#FIRSTBEAT:0.000;
#LASTBEAT:360.000;
#SONGFILENAME:Songs/Music V.I.P ^_^/Silence- DJS/silence.sm;
#HASMUSIC:1;
#HASBANNER:1;
#MUSICLENGTH:166.300;
// end cache tags

//---------------dance-single - ----------------
#NOTES:
     dance-single:
     :
     Challenge:
     12:
     0.975,1.000,1.000,0.253,1.000,849.000,244.000,42.000,0.000,5.000:
1000
0100
0000
0001
0000
0020
0000
0030
,
1000
0001
0000
0100
0000
0020
0000
0000
,
1030
0100
0000
0002
0000
0000
0000
0000
,
0000
0000
0000
2000
0000
3003
0000
0000
,
0010
1000
0000
0001
0000
0200
0000
0300
,
0010
1000
0000
0100
0000
0001
0000
0200
,
0000
0300
1000
0200
0000
0000
0000
0000
,
0000
0000
0000
0300
,
0011
1100
0000
1100
0000
2020
0000
3030
,
0110
0011
0000
1001
0000
0202
0000
0303
,
1100
0110
0000
2002
0000
0000
0000
0000
,
0000
0000
3003
0220
0000
0000
0000
0330
,
1010
0110
0000
0011
0000
0220
0000
0330
,
1010
0101
0000
0110
0000
1010
0000
0220
,
0330
0000
0000
2200
0000
0000
0000
0000
,
0000
0000
0000
0000
,
0000
0000
0000
0000
3300
0000
0000
0000
0220
0000
0000
0330
0000
0000
0000
0000
,
0000
0000
0000
0000
2002
0000
0000
3003
,
1100
0000
0000
1100
0000
1100
0000
0000
0011
0000
0000
0011
0000
0011
0000
1100
,
0110
0000
0000
0110
0000
0110
0000
0000
1100
0000
0000
1100
0000
1100
0000
0000
,
1001
0000
0000
1001
0000
1001
0000
0000
0011
0000
0000
0011
0000
0011
0000
0110
,
1100
0000
0000
1100
0000
1100
0000
0000
0101
0000
0000
0101
0000
0101
0000
1100
,
0110
0000
0000
0110
0000
0110
0000
0000
1010
0000
0000
1010
0000
1010
0000
0110
,
0101
0000
0000
0101
0000
0101
0000
0000
1100
0000
0000
1100
0000
1100
0000
0000
,
0011
0000
0000
0011
0000
0011
0000
0000
0110
0000
0000
0110
0000
0110
0000
1100
,
0101
0000
0000
0101
0000
0101
0000
0000
0110
0000
0000
0110
0000
0110
0000
1100
,
0001
0010
0100
1000
0011
1000
0100
0001
0010
0100
1000
0001
0110
1000
0001
0100
,
0010
1000
0100
0010
0101
1000
0010
0001
0100
1000
0001
0010
1100
0001
0100
0010
,
1000
0001
0100
0010
1001
0010
0100
0001
0010
1000
0001
0100
1001
0010
1000
0001
,
0010
0100
1000
0100
0011
1000
0100
0010
0001
1000
0010
0001
1100
0001
0010
0100
,
1000
0010
0100
0001
1010
0100
0001
0010
1000
0001
0100
0010
1100
0001
0010
0100
,
1000
0100
0001
0010
1100
0001
0010
0100
1000
0010
0100
0001
1010
0100
0010
0001
,
0100
1000
0010
0100
1001
0010
0100
1000
0100
0010
0001
1000
0110
0001
0010
0100
,
1000
0100
0001
0010
1100
0001
0010
1000
0100
0001
0100
1000
0011
0100
0020
0000
,
0000
0032
0110
0003
1000
0100
1010
0002
,
0000
0203
0011
0300
1000
0100
1001
0200
,
0000
0000
0011
0000
0000
0300
1010
0002
,
0003
0000
0101
0000
2000
0200
3311
0200
,
0000
0310
1100
0000
0001
0010
1100
0002
,
0000
0023
1100
0230
0000
0300
2001
3200
,
0000
0000
0310
0200
0000
0300
0011
0000
,
0000
1100
0000
0011
,
1000
0100
0010
0001
1100
0010
1000
0100
0011
0100
1000
0010
0101
0010
1000
0100
,
0011
1000
0001
0010
1100
0001
0010
0100
0011
1000
0010
0100
1001
0010
1000
0100
,
0011
0100
0001
1000
0110
0001
0010
1000
0101
0010
0100
1000
0101
0010
1000
0001
,
0110
1000
0001
0010
1100
0001
1000
0010
0101
1000
0100
0010
0101
0010
0100
1000
,
0110
0001
0010
0100
1001
0010
0100
1000
0110
0001
0010
1000
0110
0001
1000
0010
,
1100
0001
1000
0010
0101
0010
1000
0100
0011
0100
1000
0001
1100
0010
0001
0100
,
2020
0000
0000
0000
,
0000
0000
0000
0000
0000
0000
0000
0000
0000
0000
0000
0000
0000
3030
0000
0000
,
0001
0100
0010
1000
0101
0010
0100
1000
0100
0010
0001
0100
1010
0001
0100
1000
,
0010
0100
1000
0001
0110
1000
0010
0100
0001
0010
1000
0100
0011
1000
0010
0100
,
0001
1000
0010
0100
1001
0010
0100
0001
1000
0100
0001
0010
1100
0001
0010
0100
,
1000
0001
0010
0100
1010
0100
0010
0001
1000
0100
0010
0001
0110
1000
0100
0001
,
0100
1000
0010
0100
0011
1000
0010
0100
0001
0010
0100
0001
1100
0010
0001
0100
,
0010
1000
0100
0001
0110
0001
1000
0100
0001
0010
0100
1000
0011
0100
1000
0010
,
0100
0001
0010
1000
0011
0100
1000
0100
0001
0010
0100
1000
0011
0100
1000
0001
,
0010
0100
1000
0001
0110
1000
0010
0001
0100
0001
1000
0100
0011
0100
1000
0010
,
0100
0001
0010
1000
0110
0001
0010
0100
1000
0001
0100
0010
1001
0010
0100
1000
,
0001
0100
0010
1000
0101
0010
1000
0010
0100
0001
0010
1000
0110
0001
0010
1000
,
0010
0001
0010
0100
1001
0010
0100
1000
0010
0100
0001
0010
1100
0001
0010
1000
,
0010
0100
0001
0010
1100
0001
0010
1000
0100
0001
0010
1000
0101
0010
0100
1000
,
0100
0001
0010
0100
1001
0010
0100
1000
0100
0010
0001
1000
0110
0001
0010
0100
,
1000
0010
0100
0001
1010
0100
1000
0010
0100
0001
0010
0100
1001
0010
0100
1000
,
0100
0010
0001
1000
0101
0010
0100
1000
0100
0010
0001
0010
1100
0001
0010
0100
,
1000
0100
0001
0010
1100
0001
1000
0100
0010
0100
1000
0001
0110
1000
0100
0010
,
1001
1100
0011
0110
,
1010
0101
0011
0110
,
1010
0101
0110
1010
,
0110
1001
0011
1010
,
0110
0010
1001
0100
0011
1000
0110
0001
,
1010
0001
1100
0010
1100
0001
1010
0100
,
1001
0010
1100
0001
0110
1000
0011
1000
,
0110
0001
1010
0100
0011
0100
1010
0001
,
1100
0001
0010
0100
1010
0100
0001
0010
1100
0001
1000
0010
0101
1000
0010
0100
,
0011
0100
1000
0010
0101
0010
1000
0100
0011
0100
1000
0001
0110
1000
0001
0100
,
0011
1000
0010
0100
1001
0010
0100
1000
0011
0100
1000
0001
0110
1000
0010
0100
,
0011
0100
1000
0010
0101
0010
1000
0010
0101
0010
1000
0100
0011
0100
1000
0001
,
0110
1000
0001
1000
0101
0010
0100
1000
0011
0100
1000
0010
0101
0010
1000
0010
,
1100
0001
0010
0100
1010
0100
0001
0010
1100
0001
0010
0100
0011
1000
0010
0001
,
1100
0010
0100
1000
0011
0100
0010
0001
1010
0100
0001
0100
1010
0100
0001
1000
,
0110
1000
0100
0010
0101
0010
1000
0010
1100
0001
1000
0010
0101
0010
0100
1000
,
0001
0010
1100
0001
0010
0100
1001
0100
,
0001
1000
0110
0001
1000
0010
1100
0001
,
1000
0010
1100
0001
1000
0001
1010
0100
,
0001
0100
1100
0001
0100
0010
1100
0001
,
0010
1000
0011
0100
1000
0001
1010
0100
,
0001
1000
0011
1000
0010
0100
1001
0010
,
1000
0010
1100
0001
0100
0001
1100
0000
,
0000
0000
0000
0000
,
1001
0000
0000
0000
;
